Party Hardcore Gone Crazy Vol 2 XXX XViD-BTRG (2013) Other | 2.26 GB

Party Hardcore Gone Crazy Vol 2 XXX XViD-BTRG

Format : AVI
Format/Info : Audio Video Interleave
Format profile : OpenDML
File size : 2.26 GiB
Duration : 3h 55mn
Overall bit rate : 1 376 Kbps
Writing application : VirtualDubMod 1.5.10.3 | www.virtualdub-fr.org || (build 2550/release)
Writing library : VirtualDubMod build 2550/release

Video
ID : 0
Format : xvid
Codec ID : xvid
Duration : 3h 55mn
Bit rate : 1 300 Kbps
Width : 720 pixels
Height : 400 pixels
Display aspect ratio : 16:9
Frame rate : 25.000 fps
Bits/(Pixel*Frame) : 0.181
Stream size : 2.14 GiB (94%)

Audio
ID : 1
Format : AC-3
Format/Info : Audio Coding 3
Mode extension : CM (complete main)
Format settings, Endianness : Big
Codec ID : 2000
Duration : 3h 55mn
Bit rate mode : Constant
Bit rate : 64.0 Kbps
Channel(s) : 2 channels
Channel positions : Front: L R
Sampling rate : 44.1 KHz
Bit depth : 16 bits
Compression mode : Lossy
Stream size : 108 MiB (5%)
Alignment : Split accross interleaves
Interleave, duration : 40 ms (1.00 video frame)
Interleave, preload duration : 500 ms

Party Hardcore Gone Crazy Vol 2 XXX XViD-BTRG (2013) Other | 2.26 GB


2.torrent
Скачать торрент файл
Скачать

12.5 KB
 Раздают:    
 Качают:    
 Скачиваний:    раз(а)
 Общий Размер: 
 SHA Hash:
 Инфо: Не забывайте оставлять комментарии
Как cкачать

ПОМНИ! Уходя с раздачи, ты не даешь скачать этот файл другим пользователям.

Помощь в раздаче - стимул к созданию новых торрентов.

Список файлов (1)